#TITLE:1,2,3,4;
#SUBTITLE:;
#ARTIST:Koyote;
#TITLETRANSLIT:1,2,3,4;
#SUBTITLETRANSLIT:;
#ARTISTTRANSLIT:Koyote;
#CREDIT:;
#BANNER:1,2,3,4-bn.png;
#BACKGROUND:1,2,3,4-bg.png;
#LYRICSPATH:;
#CDTITLE:pm4cd.png;
#MUSIC:1,2,3,4.mp3;
#OFFSET:0.080;
#SAMPLESTART:58.714;
#SAMPLELENGTH:20.000;
#SELECTABLE:YES;
#BPMS:0.000=136.000;
#STOPS:;
#BGCHANGES:;
// cache tags:
#FIRSTBEAT:1.500;
#LASTBEAT:496.750;
#SONGFILENAME:Songs/Music V.I.P ^_^/1,2,3,4/1,2,3,4.sm;
#HASMUSIC:1;
#HASBANNER:1;
#MUSICLENGTH:223.503;
// end cache tags

//---------------dance-single - ----------------
#NOTES:
     dance-single:
     :
     Hard:
     9:
     0.845,0.861,1.000,0.188,1.000,947.000,331.000,42.000,0.000,14.000:
0000
0000
0000
0000
0000
0000
2002
0000
0000
0000
0000
0000
3003
0100
0000
0010
,
0000
0001
0000
0100
0010
1001
0000
0100
0000
1010
0000
1010
0000
0000
0000
0000
,
0000
1001
0000
0000
0000
1100
0000
0010
0000
0101
0000
1001
0000
0000
0000
0000
,
0000
1100
0000
0000
0000
0011
0000
0010
0000
0100
0000
1001
0000
0000
0000
0000
,
0000
1010
0000
0100
0000
0010
0000
0001
0000
0010
0000
0001
0000
1100
0000
1100
,
0000
0001
1010
0001
0000
0100
0000
0010
0000
0110
0000
1100
0000
0000
0000
0000
,
0000
0011
0000
0000
0000
1010
0000
0100
0000
1001
0000
0110
0000
0000
0000
0000
,
0000
0101
0000
0000
0000
1000
0000
0011
0000
1000
0000
0011
0000
0000
0000
0000
,
0000
1100
0000
1000
0000
0011
0000
0110
0000
1100
0000
1001
0000
0011
0000
0110
,
0000
1100
0000
1001
0000
0001
0000
0110
0000
0001
0000
1100
0000
0000
0000
0011
,
0100
0011
0000
0000
0000
1001
0000
0100
0000
0010
0000
0101
0000
0000
0000
1010
,
0100
1001
0000
0000
0000
0100
0000
1100
0000
0011
0000
1100
0000
0000
0000
0011
,
0010
1100
0000
0000
0000
0011
0000
1100
0000
0001
0000
0010
0000
0100
0010
1100
,
0000
0011
0000
0110
0000
1000
0000
0101
0000
1000
0000
0011
0000
0000
0000
0110
,
0001
1100
0000
0000
0000
0101
0000
0011
0000
1001
0000
1100
0000
0000
0000
0101
,
1000
0110
0000
0000
0000
0011
0000
1100
0000
0011
0000
0110
0000
0000
0000
1001
,
0000
1010
0000
0101
0000
1000
0010
0100
0000
0010
0001
0100
0000
0010
1000
0100
,
0000
0001
0000
1000
0000
0001
0000
0001
0000
0100
0000
0010
0000
1000
0000
1000
,
0000
0011
0100
0011
0000
1000
0000
0110
0000
1000
0000
1001
0000
0010
0000
0100
,
0000
1000
0000
0100
0000
0011
0000
0001
0000
1010
0000
0001
0000
1000
0000
0010
,
0000
0100
0000
0001
0000
1100
0000
0100
0000
0010
0000
0101
0000
1000
0110
1000
,
0000
0001
0110
0001
0000
1001
0000
1000
0000
0100
0000
0010
0000
0001
0100
0001
,
0000
0010
0000
0100
0000
0010
0000
0100
0000
1000
0000
1000
0000
0001
0000
0010
,
0000
0100
0000
1000
0000
1000
0100
0010
0001
1000
0100
0010
0001
1000
0000
0010
,
0000
0001
0000
0010
0000
0100
0000
0010
0000
1000
0000
0010
0000
0100
0011
0100
,
0000
0001
1100
0001
0000
1010
0000
0000
0000
0101
0000
0101
0000
0000
0000
1010
,
0000
1010
0000
0000
0000
1001
0000
0010
0000
0110
0000
1000
0000
0011
0000
1100
,
0000
0001
0110
0001
0000
1010
0000
0000
0000
0110
0000
0110
0000
0000
0000
1001
,
0000
0100
0000
1002
0000
0000
0000
0000
0000
1000
0000
1000
0000
0000
0000
1000
,
0000
1000
0000
0100
0003
1000
0000
0000
0000
1001
0000
1001
0000
0000
0000
0000
,
0000
1000
0000
0011
0000
1100
0000
0011
0000
1100
0000
0011
0000
0000
0000
0000
,
0000
1010
0000
0100
0000
1100
0000
0000
0000
0011
0000
0011
0000
0000
0000
0000
,
0000
1100
0000
0010
0000
1001
0000
0000
0000
0101
0000
0000
0000
1000
0110
1000
,
0000
0001
0010
1100
0010
0001
0000
0000
0000
1100
0000
1100
0000
0000
0000
1000
,
0000
0001
0000
0010
0000
0100
0000
1000
0000
0011
0000
0011
0000
0000
0000
1000
,
0000
0100
0000
0010
0000
0001
0000
0000
0000
1100
0000
1100
0000
0000
0000
0011
,
0000
1001
0000
0100
0000
2001
0000
0010
0000
0001
0000
0010
0000
0100
0000
0010
,
0000
3001
0000
0010
0000
0001
0000
0000
0000
0010
0000
0100
0000
1000
0000
0011
,
0000
1001
0000
0000
0000
1100
0000
0010
0000
0001
0000
0010
0000
1000
0000
0001
,
0000
1100
0000
1100
0000
0011
0000
0000
0000
1100
0000
1100
0000
0000
0000
0101
,
0000
0011
0000
1100
0000
1010
0000
0000
0000
0011
0000
0100
0000
0010
0100
0010
,
0000
1001
0000
0100
0000
2001
0000
0010
0000
0001
0000
0010
0000
0100
0000
0010
,
0000
0100
0000
0010
3000
0102
0000
0010
0000
0100
0000
1000
0000
0100
0000
0010
,
0000
0100
0000
1000
0003
2100
0000
0010
0000
0001
0000
0010
0000
0100
0000
0010
,
0000
0100
0000
0010
3000
0102
0000
0010
0000
0100
0000
1000
0000
0100
0000
0010
,
0000
0100
0000
1000
0003
2100
0000
0010
0000
0001
0000
0010
0000
0001
0000
0010
,
0000
0100
0000
0010
3000
0102
0000
1000
0000
0100
0000
1000
0000
0100
0000
0010
,
0000
0100
0000
1000
0003
2010
0000
0100
0000
0010
0000
0001
0000
0010
0000
0100
,
0000
0010
0000
0001
3000
0010
0000
1100
0000
0011
0000
1000
0000
0100
0000
0010
,
0000
1001
0000
1100
0000
0110
0000
0110
0000
0110
0000
0110
0000
0110
0000
0110
,
0000
0110
0000
0110
0000
1001
0000
0000
0100
0010
0000
0002
0000
1000
0000
0000
,
1000
0100
0000
1003
0000
0120
1000
0100
0001
0100
0000
1000
0000
0031
0000
1000
,
0000
0100
0000
0010
0000
2000
0100
0010
0001
0010
0000
0001
0000
3100
0000
0010
,
0000
0100
0000
1000
0000
0022
0000
1000
0000
0100
0000
1000
0000
0133
0000
0100
,
0000
0100
0000
1000
0100
0011
0000
0001
0010
1100
0000
0010
0010
0101
0000
1000
,
0110
0000
0000
0001
0001
1010
0000
1000
1000
0101
0000
0001
0100
1001
0000
0010
,
0101
0000
0000
0010
0010
1100
0000
0100
0100
0011
0000
1000
0100
1001
0000
0100
,
0011
0000
0000
0100
0000
2002
0000
0010
0000
0100
0000
0010
3003
0100
0000
0010
,
0000
0001
0000
1000
0010
0101
0000
0101
0000
0101
0000
0101
0000
0101
0000
0101
,
0000
1010
0000
1010
0000
1110
0000
0010
0000
1000
0000
0001
0000
0100
0000
0100
,
0000
1010
0100
1010
0000
0001
0000
1010
0000
0100
0000
1001
0000
0100
0000
0010
,
0000
0001
0000
0010
0000
1100
0000
0010
0000
0101
0000
0010
0000
0100
0000
1000
,
0000
0100
0000
1000
0000
0011
0000
0001
0000
0100
0000
1010
0000
0001
0110
0001
,
0000
1000
0110
1000
0000
1001
0000
0010
0000
0100
0000
0010
0000
0001
0010
0001
,
0000
0100
0000
0010
0000
0001
0000
0010
0000
0100
0000
0100
0000
0001
0000
0010
,
0000
0100
0000
1000
0000
0001
0010
0100
1000
0001
0010
0100
1000
0001
0000
0100
,
0000
0010
0000
0100
0000
1000
0000
0100
0000
0001
0000
0100
0000
1000
0101
1000
,
0000
0001
1010
0001
0000
0110
0000
0000
0000
0011
0000
0011
0000
0000
0000
0101
,
0000
0101
0000
0000
0000
0101
0000
0010
0000
1001
0000
0100
0000
1100
0000
0011
,
0000
0100
1010
0100
0000
0011
0000
0000
0000
1010
0000
1010
0000
0000
0000
0101
,
0000
0010
0000
0201
0000
0000
0000
0000
0000
0010
0000
0010
0000
0000
0000
0010
,
0000
0310
0000
0001
0000
0100
0000
0000
0000
1100
0000
1100
0000
0000
0000
0000
,
0000
0010
0000
1100
0000
0011
0000
1100
0000
0011
0000
1100
0000
0000
0000
0000
,
0000
1010
0000
0100
0000
1100
0000
0000
0000
0110
0000
0110
0000
0000
0000
0000
,
0000
0101
0000
0010
0000
1001
0000
0000
0000
0110
0000
0000
0000
0010
0101
0010
,
0000
1000
0100
0011
0100
1000
0000
0000
0000
0011
0000
0011
0000
0000
0000
0010
,
0000
1000
0000
0100
0000
0010
0000
0001
0000
1010
0000
1010
0000
0000
0000
0001
,
0000
0010
0000
0100
0000
1000
0000
0000
0000
0011
0000
0011
0000
0000
0000
1010
,
0000
0101
0000
0010
0000
1002
0000
0010
0000
0100
0000
0010
0000
0100
0000
1000
,
0000
0103
0000
0010
0000
0100
0000
0000
0000
1000
0000
0100
0000
0010
0000
0101
,
0000
0110
0000
0000
0000
1010
0000
0100
0000
1000
0000
0100
0000
0010
0000
0001
,
0000
0110
0000
0110
0000
1001
0000
0000
0000
0101
0000
0101
0000
0000
0000
1100
,
0000
1010
0000
0110
0000
0101
0000
0000
0000
1010
0000
0010
0000
0100
0010
0100
,
0000
1010
0000
0100
0000
1020
0000
0001
0000
0100
0000
1000
0000
0100
0000
0001
,
0000
0100
0000
1000
0030
0201
0000
1000
0000
0010
0000
0001
0000
0010
0000
0001
,
0000
0010
0000
1000
0300
1020
0000
0001
0000
0100
0000
1000
0000
0100
0000
0001
,
0000
0100
0000
0001
0030
0201
0000
1000
0000
0010
0000
1000
0000
0010
0000
0001
,
0000
0010
0000
1300
0000
0120
0000
1000
0000
0100
0000
1000
0000
0100
0000
0001
,
0000
0100
0000
1000
0030
0201
0000
1000
0000
0010
0000
1000
0000
0010
0000
0001
,
0000
0010
0000
1000
0300
1020
0000
0100
0000
0001
0000
0100
0000
1000
0000
0100
,
0000
1000
0000
0100
0000
0001
0030
0101
0000
1010
0000
0001
0000
0010
0000
0100
,
0000
1001
0000
1010
0000
2100
0000
0010
0000
0001
0000
0010
0000
0100
0000
0010
,
0000
0001
0000
0010
0000
3200
0000
1000
0000
0010
0000
0001
0000
0010
0000
1000
,
0000
0010
0000
0001
0000
0320
0000
0100
0000
1000
0000
0100
0000
0001
0000
0100
,
0000
1000
0000
0100
0000
0032
0000
0010
0000
0100
0000
1000
0000
0100
0000
0010
,
0000
0100
0000
1000
0000
0213
0000
1000
0000
0010
0000
0001
0000
1010
0000
1000
,
0000
0010
0000
0001
0000
0320
0000
0100
0000
1000
0000
0100
0000
1001
0000
0100
,
0000
1000
0000
0100
0000
1032
0000
0010
0000
0100
0000
1000
0000
0110
0000
0010
,
0000
0100
0000
1000
0000
1113
0000
0010
0000
0101
0000
0100
0000
1000
0001
1000
,
0000
0001
0100
1010
0100
0001
0000
0000
0000
0101
0000
0101
0000
0000
0000
0010
,
0000
1000
0000
0100
0000
0010
0000
0001
0000
1100
0000
1100
0000
0000
0000
0001
,
0000
0010
0000
0100
0000
1000
0000
0000
0000
0011
0000
0011
0000
0000
0000
0110
,
0000
1001
0000
0010
0000
1002
0000
0010
0000
0100
0000
1000
0000
0100
0000
0010
,
0003
0100
0000
1000
0000
0100
0000
0000
0000
1000
0000
0100
0000
0010
0000
1100
,
0000
0101
0000
0000
0000
1100
0000
0010
0000
0001
0000
1000
0000
0100
0000
0010
,
0000
0101
0000
0101
0000
1010
0000
0000
0000
0110
0000
0110
0000
0000
0000
1001
,
0000
0101
0000
0011
0000
0110
0000
0000
0000
0101
0000
0010
0000
0100
0010
0100
,
0000
1001
0000
0100
0000
2001
0000
0010
0000
0001
0000
0010
0000
0100
0000
0010
,
0000
0100
0000
0010
3000
0102
0000
0010
0000
0100
0000
1000
0000
0100
0000
0010
,
0000
0100
0000
1000
0003
2100
0000
0010
0000
0001
0000
0010
0000
0100
0000
0010
,
0000
0100
0000
0010
3000
0102
0000
0010
0000
0100
0000
1000
0000
0100
0000
0010
,
0000
0100
0000
1000
0003
2100
0000
0010
0000
0001
0000
0010
0000
0001
0000
0010
,
0000
0100
0000
0010
3000
0102
0000
1000
0000
0100
0000
1000
0000
0100
0000
0010
,
0000
0100
0000
1000
0003
2010
0000
0100
0000
0010
0000
0001
0000
0010
0000
0100
,
0000
0010
0000
0001
3000
0010
0000
1100
0000
0011
0000
1000
0000
0100
0000
0010
,
0000
1001
0000
1100
0000
0011
0000
0000
0000
1001
0000
1001
0000
0000
0000
1000
,
0000
0010
0000
1100
0000
0001
0000
0010
0000
0100
0000
1000
0000
0100
0000
0010
,
0000
0001
0000
1100
0000
0011
0000
0000
0000
1100
0000
1010
0000
0000
0000
0001
,
0000
0110
0000
0001
0000
1100
0000
0010
0000
0101
0000
0010
0000
1000
0000
0110
,
0000
1000
0000
0011
0000
1000
0000
0000
0000
0101
0000
0101
0000
0000
0000
1000
,
0000
1010
0000
0101
0000
0010
0000
0100
0000
0011
0000
1000
0000
0101
0000
0010
,
0000
0001
0000
1100
0000
0001
0000
0000
0000
1010
0000
1010
0000
0000
0000
0001
,
0000
0110
0000
0001
0000
1100
0000
0010
0000
0101
0000
0010
0000
1100
0000
0100
,
0000
1010
0000
0001
0000
1010
0000
0100
0000
1010
0000
0001
0000
0010
0000
0100
,
0000
1001
0000
1001
0000
0000
0000
0000
0000
0000
0000
0000
0000
0000
0000
0000
;
